ONE Championship 41 Global Rivals Full Event.15 04 2016.WEB-DL-Rpunk

Written by snaw90

ONE Championship 41 Global Rivals Full Event.15 04 2016.WEB-DL-Rpunk

 

 

wwe
General ONE Championship 41 Global Rivals Full Event.15 04 2016.WEB-DL-Rpunk
Format : MPEG-4
Format profile : Base Media
Codec ID : isom
File size : 2.74 GiB
Duration : 4h 53mn
Overall bit rate mode : Variable
Overall bit rate : 1 335 Kbps
Writing application : Lavf56.15.102

Video
ID : 1
Format : AVC
Format/Info : Advanced Video Codec
Format profile : High@L3.1
Format settings, CABAC : Yes
Format settings, ReFrames : 2 frames
Codec ID : avc1
Codec ID/Info : Advanced Video Coding
Duration : 4h 53mn
Bit rate mode : Variable
Bit rate : 1 197 Kbps
Maximum bit rate : 2 000 Kbps
Width : 960 pixels
Height : 540 pixels
Display aspect ratio : 16:9
Frame rate mode : Constant
Frame rate : 25.000 fps
Color space : YUV
Chroma subsampling : 4:2:0
Bit depth : 8 bits
Scan type : Progressive
Bits/(Pixel*Frame) : 0.092
Stream size : 2.45 GiB (90%)

Audio
ID : 2
Format : AAC
Format/Info : Advanced Audio Codec
Format profile : LC
Codec ID : 40
Duration : 4h 53mn
Bit rate mode : Variable
Bit rate : 125 Kbps
Maximum bit rate : 128 Kbps
Channel(s) : 2 channels
Channel positions : Front: L R
Sampling rate : 48.0 KHz
Compression mode : Lossy
Stream size : 263 MiB (9%)

 

 

 

ONE Championship 41 Global Rivals Full Event.15 04 2016.WEB-DL-Rpunk

 

 

Watch online

Waiting finsh converting video

 

Server 1

 

 

 

 

Server 2

 

 

 

Click Here

 

 

 

 

540p

 

 

http://ul.to/7g4ymd3h

http://rapidgator.net/file/fe31d191920694af9c3d8809a1931866/@#!!41_$#Full_Even.t40p_ENG.rar.html

http://u26061582.letitbit.net/download/84471.86dbe88c3b1dc8eb5c607d82c34e/____41___Full_Even.t40p_ENG.rar.html
 

 

 

ONE Championship 41 Global Rivals Full Event.15 04 2016.WEB-DL-Rpunk